The.Hunger.Games.Mockingjay.Part.2.2015.BRRip.720p.x264.AAC-PRiST...

  • Category Movies
  • Type Mp4
  • Language English
  • Total size 865.4 MB
  • Uploaded By VYTO
  • Downloads 2978
  • Last checked 6 hours ago
  • Date uploaded 2 years ago
  • Seeders 5
  • Leechers 6

The Hunger Games: Mockingjay - Part...

DramaAdventureAction

With the nation of Panem in a full scale war, Katniss confronts President Snow in the final showdown. Teamed with a group of her closest friends – including Gale, Finnick, and Peeta – Katniss goes off on a mission with the unit from District 13 as they risk their lives to stage an assassination attempt on President Snow who has become increasingly obsessed with destroying her. The mortal traps, enemies, and moral choices that await Katniss will challenge her more than any arena she faced in The Hunger Games.

Infohash : 445D1C83619750B2495BD791D05AAD5C9242DDFF




The.Hunger.Games.Mockingjay.Part.2.2015.BRRip.720p.x264.AAC-PRiSTiNE


Genre: Adventure, Sci-Fi
IMDb: http://www.imdb.com/title/tt1951266/


Quote:

Format : MPEG-4
File size : 852 MiB
Duration : 2h 16mn
Overall bit rate : 870 Kbps

Video
Format : AVC
Bit rate : 787 Kbps
Width : 1 264 pixels
Height : 528 pixels
Display aspect ratio : 2.40:1
Frame rate mode : Constant
Frame rate : 23.976 fps
Bit depth : 8 bits
Stream size : 771 MiB (90%)
Writing library : x264

Audio
Format : AAC
Bit rate mode : Variable
Bit rate : 80.0 Kbps
Channel(s) : 2 channels
Channel positions : Front: L R
Sampling rate : 48.0 KHz
Stream size : 78.4 MiB (9%)
Language : English

Subtitle : Yes (English)



Screen Shots: (click to see image in full size)









-------------------------------------------------------------------------------------


Quote:

Encoder Notes: Looking For Early Access To Anything You Can Provide WEBDL, DVDScr, DVDR, BluRay, Direct
Audio, Music Releases and Seedboxes.






Files:

  • The.Hunger.Games.Mockingjay.Part.2.2015.BRRip.720p.x264.AAC-PRiSTiNE.mp4 (852.0 MB)
  • Sample.mp4 (13.3 MB)
  • The.Hunger.Games.Mockingjay.Part.2.2015.BRRip.720p.x264.AAC-PRiSTiNE.srt (105.1 KB)
  • VYTO.png (39.3 KB)
  • The.Hunger.Games.Mockingjay.Part.2.2015.BRRip.720p.x264.AAC-PRiSTiNE.nfo (2.3 KB)
  • Torrent downloaded from demonoid.pw.txt (0.0 KB)
  • Torrent downloaded from p2pdl.com.txt (0.0 KB)

There are currently no comments. Feel free to leave one :)

Code:

  • udp://tracker.coppersurfer.tk:6969/announce
  • udp://tracker.blackunicorn.xyz:6969/announce
  • udp://tracker.openbittorrent.com:80/announce
  • udp://tracker.opentrackr.org:1337/announce
  • udp://9.rarbg.to:2710/announce
  • udp://9.rarbg.me:2710/announce
  • udp://tracker.sktorrent.net:6969/announce
  • udp://tracker.glotorrents.com:6969/announce
  • udp://p4p.arenabg.com:1337/announce
  • http://ipv4.tracker.harry.lu:80/announce
  • http://tracker.ex.ua/announce
  • udp://torrent.gresille.org:80/announce
  • http://tracker.aletorrenty.pl:2710/announce
  • udp://tracker.leechers-paradise.org:6969/announce
  • udp://tracker.istole.it:80/announce
SitemapŽupan & šaty sety | 1x915 Acacias 38 | アヴァベル ルピナス 【王道MMORPG】 Asobimo, Inc. Pré-inscritos: 164